#TITLE:Hikari;
#SUBTITLE:- Inukami Opening;
#ARTIST:堀江由衣;
#TITLETRANSLIT:;
#SUBTITLETRANSLIT:;
#ARTISTTRANSLIT:Yui Horie;
#CREDIT:Tweety;
#BANNER:Hikari-logo.jpg;
#BACKGROUND:Hikari-bg.jpg;
#LYRICSPATH:Trance.lrc;
#CDTITLE:cdtitle02.png;
#MUSIC:Inukami_-_Hikari_(TV_Size).mp3;
#OFFSET:1.440;
#SAMPLESTART:40.253;
#SAMPLELENGTH:12.000;
#SELECTABLE:YES;
#BPMS:0.000=144.020;
#STOPS:;
#BGCHANGES:0.000=inukamiOP.avi=1.000=1=1=0,
216.000=Hikari-bg.jpg=1.000=0=0=1,
99999=-nosongbg-=1.000=0=0=0 // don't automatically add -songbackground-
;
// cache tags:
#FIRSTBEAT:4.000;
#LASTBEAT:216.000;
#SONGFILENAME:songs/Otaku's Dream 3rd Anime Mix/[Tweety3187] Hikari - Inukami OP/Trance.sm;
#HASMUSIC:1;
#HASBANNER:1;
#MUSICLENGTH:89.806;
// end cache tags

//---------------dance-single - ----------------
#NOTES:
     dance-single:
     :
     Challenge:
     12:
     1.000,1.000,1.000,0.256,1.000,714.000,324.000,23.000,0.000,0.000:
0000
0000
0000
0000
,
1000
1000
1000
0001
0100
0100
0001
1000
,
1000
0001
0100
0010
0001
1000
0100
0010
,
0100
1000
0100
1000
0001
0010
0100
1000
,
0001
0010
0100
1000
1000
0100
0010
0001
0001
0010
0100
1000
1000
0100
0010
0001
,
1010
0001
1100
0100
0011
0100
1010
0001
0110
0001
1100
0010
1001
0100
0011
1000
,
0100
0000
1010
0000
0210
0001
0010
0001
0310
1000
0100
0010
1001
0001
0110
1000
,
0110
0010
1001
0010
0101
1000
0110
0001
1100
0100
0011
1000
0011
1000
0101
0010
,
0100
0000
1010
0000
0120
0001
1000
0001
1030
0100
1000
0100
0011
1000
0101
0001
,
1010
0100
1010
0001
0110
0001
1010
0100
0011
0100
1010
0001
1100
0010
1001
0100
,
0010
0000
0101
0000
2100
0001
0010
3100
1100
1100
1100
1100
0011
0011
0011
0011
,
1001
1010
1100
0000
0011
0000
0110
0000
1010
0000
0011
0101
0000
1010
0000
1100
,
1100
1100
0101
0000
0110
0000
1100
0000
0011
0000
0101
1010
0000
0110
0011
0000
,
0011
1010
0101
0000
0110
0000
0011
0000
1010
0000
0011
0101
0000
0110
0000
1010
,
1001
0000
1010
0000
1100
0011
0000
0110
0110
0000
1001
1001
0000
1010
1010
0000
,
0101
0101
0101
0000
0110
0000
1100
0000
0011
0000
1010
1010
0000
0110
0000
1001
,
1001
0011
0011
0000
0101
0000
1010
0000
1100
0000
0011
0101
0000
1010
1100
0000
,
0110
1100
1100
0000
0110
0000
1100
0000
0011
0000
0011
0101
0000
0110
0011
0000
,
1100
0011
1100
0011
1100
0011
1100
0011
0110
1001
0110
1001
0110
1001
0110
1001
,
1001
0010
0100
0000
0011
1000
0101
0010
0100
0000
1010
0001
1100
0010
1100
0010
,
0011
1000
0100
0000
0101
1000
0120
0001
1000
0001
1030
0001
0100
0000
0100
0010
,
1001
0010
0010
0000
0110
0001
1100
0010
0001
0000
0110
0001
1010
0001
0110
1000
,
0011
0100
0100
0000
1001
0010
2100
0010
0100
0010
3001
0010
0100
0000
0100
0001
,
1010
0100
0001
0000
1100
0010
1100
0010
0001
0000
0110
0001
1010
0001
0110
1000
,
0011
0100
1000
0010
0101
0010
1001
0100
0001
0100
1010
0001
0010
0000
0001
0100
,
2010
0001
0010
0001
3010
0000
0100
0100
0100
0010
0010
0000
1001
0010
0101
1000
,
0110
0001
0010
0000
1100
0010
1100
0001
0100
1000
0012
0100
0010
1000
0103
0010
,
0110
1000
0001
0000
1010
0100
0011
1000
0001
0000
1100
0010
0101
1000
0101
1000
,
1010
0100
0001
0000
0011
0100
2001
0010
0001
0100
3001
0010
0001
0000
0001
1000
,
0110
1000
1000
0000
1001
0010
0101
1000
0010
0000
1001
0010
1100
0010
1001
0100
,
1010
0001
0001
0000
0110
1000
0201
1000
0001
1000
0310
1000
0001
0000
0001
0010
,
1100
0001
0010
0000
0101
1000
0101
1000
0010
0000
1001
0010
1100
0010
1001
0100
,
1010
0001
0100
1000
0011
1000
0110
0001
0010
0001
1100
0010
1000
0000
0010
0001
,
2100
0010
0001
0010
0001
0010
0100
0010
3001
0010
1000
0000
0110
1000
0011
0100
,
1001
0010
1100
0010
0101
1000
0101
0010
0001
0100
1000
0001
1010
0100
0001
1000
,
0012
1000
1000
1000
1003
0000
0100
0100
1010
1000
0011
1000
0110
1000
0101
0010
,
2001
0000
0000
0000
0010
0000
0100
0000
0002
0000
0000
0003
0010
0000
0001
0000
0200
0000
0000
3300
0011
0000
0100
0000
0011
0000
0000
0000
1100
0000
0100
0000
,
1100
0000
1001
1001
2001
0100
0001
0100
0001
0100
0001
0100
0001
0100
3001
0100
,
0010
0000
0010
0000
0100
0000
0100
0000
1010
1100
0110
0011
1001
1010
0110
0110
,
0011
0100
1010
1000
0101
1000
0011
0100
1001
0100
1010
0001
0110
1000
0101
0010
,
1000
0000
0011
0000
2001
0100
0001
0100
3001
0010
1000
0001
0110
0100
1001
0010
,
1001
0001
0110
0001
1100
0010
1001
0100
1010
1000
0101
0010
0101
0010
1100
0001
,
1000
0000
0011
0000
1002
0100
0010
0100
0013
1000
0010
1000
0101
0010
1100
0100
,
0011
1000
0011
0100
1001
0100
0011
1000
0101
1000
0011
0100
1010
0001
0110
1000
,
0001
0000
1100
0000
1020
0100
0001
1000
0130
0001
1010
0001
1010
0100
0011
1000
,
0100
0001
0101
1000
0120
1000
0001
1000
0001
1000
0031
1000
0100
0010
0001
0100
,
1001
1001
0000
0011
0000
0000
0110
1000
0101
0010
1000
0001
0110
0001
0010
0100
,
0011
0100
1001
1000
0110
1000
0011
0100
1010
0100
1001
0010
0101
1000
0110
0001
,
1000
0000
0011
0000
2010
0100
0010
0100
3010
0001
1000
0010
0101
0100
1010
0001
,
1010
0010
0101
0010
1100
0001
1010
0100
1001
1000
0110
0001
0110
0001
1100
0010
,
1000
0000
0011
0000
1020
0100
0001
0100
0031
1000
0001
1000
0110
0001
1100
0100
,
0011
0011
0011
0011
1100
1100
1100
1100
0110
0110
0110
0110
1001
1001
1001
1001
,
1010
0101
1010
0101
1010
0101
1010
0101
0011
1100
0011
1100
0011
1100
0011
0000
,
0000
1010
2020
0000
0000
3030
0101
0101
;

//---------------dance-single - Copied from----------------
#NOTES:
     dance-single:
     Copied from:
     Edit:
     14:
     1.000,1.000,1.000,0.234,1.000,799.000,342.000,21.000,0.000,0.000:
0000
0000
0000
0000
,
1000
0001
1000
0100
1000
0001
0010
1000
0100
0001
0100
1000
0010
0001
1000
0100
,
1000
0001
0010
1000
0100
0010
0001
1000
0010
0100
1000
0001
0100
0010
0001
0010
,
0100
0001
1000
0001
0100
0001
1000
0100
0010
1000
0001
0010
0100
0001
1000
0100
,
0010
0001
0100
1000
1000
0100
0001
0010
0011
0011
1100
1100
1010
1010
0101
0101
,
1001
0010
1100
0100
0011
0100
1001
0010
0101
0010
1100
0001
1010
0100
0011
1000
,
0100
0010
1001
0010
0201
0010
0001
0010
0301
1000
0100
0001
1010
0010
0101
1000
,
0101
0001
1010
0001
0110
1000
0101
0010
1100
0100
0011
1000
0011
1000
0110
0001
,
0100
0010
1001
0010
0102
0010
1000
0010
1003
0100
1000
0100
0011
1000
0110
0010
,
1001
0100
1001
0010
0101
0010
1001
0100
0011
0100
1001
0010
1100
0001
1010
0100
,
0001
1000
0110
0001
2100
0010
0001
3100
1100
1100
1100
1100
0011
0011
0011
0011
,
1010
1001
1100
0000
0011
0000
0101
0000
1001
0000
0011
0110
0001
1001
0010
1100
,
1100
1100
0110
0000
0101
0000
1100
0000
0011
0000
0110
1001
0010
0101
0011
0000
,
0011
1001
0110
0000
0101
0000
0011
0000
1001
0000
0011
0110
1000
0101
0010
1001
,
1010
0000
1001
0000
1100
0011
1000
0101
0101
0000
1010
1010
0100
1001
1001
0000
,
0110
0110
0110
0000
0101
0000
1100
0000
0011
0000
1001
1001
0010
0101
0001
1010
,
1010
0011
0011
0000
0110
0000
1001
0000
1100
0000
0011
1010
0100
1001
1010
0000
,
0101
1100
1100
0000
0101
0000
1100
0000
0011
0000
0011
0110
1000
0101
0011
0000
,
1100
0011
1100
0011
1100
0011
1100
0011
0101
1010
0101
1010
0101
1010
0101
1010
,
1010
0001
0100
1000
0011
1000
0110
0001
0100
0010
1001
0010
1100
0001
1100
0001
,
0011
1000
0100
0001
0110
1000
0102
0010
1000
0010
1003
0010
0100
0001
0100
0001
,
1010
0001
0001
1000
0101
0010
1100
0001
0010
1000
0101
0010
1001
0010
0101
1000
,
0011
0100
0100
0001
1010
0001
2100
0001
0100
0001
3010
0001
0100
1000
0100
0010
,
1001
0100
0010
0001
1100
0001
1100
0001
0010
1000
0101
0010
1001
0010
0101
1000
,
0011
0100
1000
0001
0110
0001
1010
0100
0010
0100
1001
0010
0001
0100
0010
0100
,
2001
0010
0001
0010
3001
0010
0100
0100
0100
0001
0001
0001
1010
0001
0110
1000
,
0101
0010
0001
0010
1100
0001
1100
0010
0100
1000
0021
0100
0001
1000
0130
0001
,
0101
1000
0010
0100
1001
0100
0011
1000
0010
0001
1100
0001
0110
1000
0110
1000
,
1001
0100
0010
1000
0011
0100
2010
0001
0010
0100
3010
0001
0010
0100
0010
1000
,
0101
1000
1000
0100
1010
0001
0110
1000
0001
0100
1010
0001
1100
0001
1010
0100
,
1001
0010
0010
1000
0101
1000
0210
1000
0010
1000
0301
1000
0010
0100
0010
0001
,
1100
0010
0001
1000
0110
1000
0110
1000
0001
0100
1010
0001
1100
0001
1010
0100
,
1001
0010
0100
1000
0011
1000
0101
0010
0001
0010
1100
0001
1000
0100
0001
0010
,
2100
0001
0010
0001
0010
0001
0100
0001
3010
0001
1000
0010
0101
1000
0011
0100
,
1010
0001
1100
0001
0110
1000
0110
0001
0010
0100
1000
0010
1001
0100
0010
1000
,
0021
1000
1000
1000
1030
0001
0100
0100
1001
1000
0011
1000
0101
1000
0110
0001
,
2010
0000
0100
0000
0001
0000
0100
0000
0010
0000
0100
0000
0001
0000
0010
0000
0100
0000
0100
3000
0011
0000
0100
0000
0011
0000
1000
0000
0110
0000
0100
0000
,
1100
0000
1010
1010
2010
0100
0010
0100
0010
0100
0010
0100
0010
0100
3010
0100
,
1001
0000
1001
0000
0110
0000
0110
0000
1001
1100
0101
0011
1010
1001
0101
0101
,
0011
0100
1001
1000
0110
1000
0011
0100
1010
0100
1001
0010
0101
1000
0110
0001
,
1000
0100
0011
0100
2010
0100
0010
0100
3010
0001
1000
0010
0101
0100
1010
0001
,
1010
0010
0101
0010
1100
0001
1010
0100
1001
1000
0110
0001
0110
0001
1100
0010
,
1000
0100
0011
0100
1020
0100
0001
0100
0031
1000
0001
1000
0110
0001
1100
0100
,
0011
1000
0011
0100
1010
0100
0011
1000
0110
1000
0011
0100
1001
0010
0101
1000
,
0010
0001
1100
0010
1002
0100
0010
1000
0103
0010
1001
0010
1001
0100
0011
1000
,
0100
0010
0110
1000
0102
1000
0010
1000
0010
1000
0013
1000
0100
0001
0010
0100
,
1010
1010
0100
0011
1000
0010
0101
1000
0110
1001
1100
1010
0101
1010
0011
1100
,
0011
0100
1010
1000
0101
1000
0011
0100
1001
0100
1010
0001
0110
1000
0101
0010
,
1000
0100
0011
0100
2001
0100
0001
0100
3001
0010
1000
0001
0110
0100
1001
0010
,
1001
0001
0110
0001
1100
0010
1001
0100
1010
1000
0101
0010
0101
0010
1100
0001
,
1000
0100
0011
0100
1002
0100
0010
0100
0013
1000
0010
1000
0101
0010
1100
0100
,
0011
0011
0011
0011
1100
1100
1100
1100
0101
0101
0101
0101
1010
1010
1010
1010
,
1001
0110
1001
0110
1001
0110
1001
0110
0011
1100
0011
1100
0011
1100
0011
0000
,
0000
1001
2002
0000
0000
3003
0110
0110
;

//---------------dance-single - Copied from----------------
#NOTES:
     dance-single:
     Copied from:
     Hard:
     10:
     1.000,1.000,1.000,0.590,0.874,564.000,191.000,53.000,0.000,0.000:
0000
0000
0000
0000
,
0200
2300
3200
0302
2003
3200
0302
0203
,
2300
3002
0203
0320
0032
2003
3200
0320
,
0230
2300
3200
2300
3002
0023
0230
2300
,
3001
0010
0100
1000
0001
0010
0100
1000
0001
0010
0100
1000
0001
0010
0100
1000
,
0110
0000
0011
0010
1100
0000
0101
1000
0110
0000
0011
0100
1001
0000
1100
0001
,
0010
0000
0101
0000
0120
0000
0100
1000
0130
0000
0010
0000
1001
0000
0110
0001
,
0110
0000
1001
0100
1010
0000
0110
1000
0011
0000
1100
0001
1100
0000
1010
0100
,
0010
0000
0101
0000
0210
0000
0001
1000
0301
0000
0001
0000
1100
0000
1001
0010
,
0101
0000
0101
1000
0110
0000
0101
0010
1100
0000
0101
1000
0011
0000
1001
0010
,
0100
0000
1010
0000
0012
0000
0100
0013
1000
0100
1000
0100
0001
0010
0001
0010
,
1000
1000
1000
0000
0010
0000
0100
0000
0001
0000
0100
0100
0000
0001
0000
0001
,
0001
0001
0001
0000
1000
0000
0010
0000
0100
0000
0001
0001
0000
0100
0100
0000
,
1000
1000
1000
0000
0010
0000
1000
0000
0001
0000
1000
1000
0000
0010
0000
0001
,
0001
0000
0100
0000
0001
0001
0000
0100
0100
0000
1000
1000
0000
0001
0001
0000
,
0010
0010
0010
0000
0100
0000
0001
0000
1000
0000
0100
0100
0000
0010
0000
1000
,
1000
1000
1000
0000
0010
0000
0100
0000
0001
0000
1000
1000
0000
0001
0001
0000
,
0010
0010
0010
0000
0100
0000
0001
0000
1000
0000
1000
1000
0000
0100
0100
0000
,
0010
1000
0010
1000
0010
1000
0010
1000
0100
0001
0100
0001
0100
0001
0100
0001
,
1010
0000
0010
0000
1100
0000
1010
0100
0010
0000
0101
0000
0011
0000
0011
0100
,
1100
0000
0010
0000
1010
0000
0210
1000
0001
0000
0310
0000
1000
0000
0010
0100
,
1001
0000
0100
0000
0110
0000
0011
0100
1000
0000
0110
0000
0101
0000
0110
0001
,
1100
0000
0010
0000
1001
0000
0012
0100
0010
0000
1003
0000
0010
0000
0010
1000
,
0101
0000
1000
0000
0011
0000
0011
0100
1000
0000
0110
0000
0101
0000
0110
0001
,
1100
0000
0001
0000
1010
0000
1001
0010
1000
0000
0101
0000
0100
0000
1000
0010
,
0102
0000
0100
0000
0103
0000
0010
0010
0010
0000
0100
0000
1001
0000
1010
0001
,
0110
0000
0100
0000
0011
0000
0011
1000
0010
0000
2100
0000
0100
0000
3010
0001
,
0110
0000
1000
0000
0101
0000
1100
0001
1000
0000
0011
0000
1010
0000
1001
0010
,
0101
0000
1000
0000
1100
0000
1002
0100
1000
0000
0013
0000
1000
0000
1000
0001
,
0110
0000
0001
0000
1001
0000
1010
0001
0100
0000
1001
0000
0011
0000
1001
0010
,
0101
0000
1000
0000
0110
0000
1020
0001
1000
0000
0130
0000
1000
0000
1000
0100
,
0011
0000
0100
0000
1010
0000
1010
0001
0100
0000
1001
0000
0011
0000
1001
0010
,
0101
0000
0010
0000
1100
0000
0110
1000
0100
0000
0012
0000
1000
0000
0103
0000
,
0012
0100
1000
0100
1000
0000
0010
0100
1003
0000
0001
0000
0110
0000
1100
0010
,
1001
0000
0011
0000
1010
0000
1020
0100
1000
0030
0001
0000
0101
0000
1000
0001
,
2100
0000
0001
0000
3001
0000
0010
0010
0101
0000
1100
0000
0110
0000
1010
0100
,
1002
0000
0000
0000
0200
0000
0000
0300
2000
0000
0000
3000
0200
0000
0000
0300
0020
0000
0000
0033
1100
0000
0000
0000
1100
0000
0000
0000
0011
0000
1000
0000
,
0011
0000
1001
0000
1002
0010
1000
0010
1000
0010
1000
0010
1000
0010
1003
0010
,
0100
0000
0100
0000
0010
0000
0010
0000
1000
0001
0010
1000
0100
0001
0010
0100
,
1001
0000
0110
0001
1010
0000
1100
0010
1001
0000
0101
1000
0110
0000
1010
0100
,
0001
0000
1100
0000
1002
0000
1000
0010
1003
0000
0001
0000
0110
0000
1001
0100
,
1001
0000
0110
1000
0011
0000
1001
0010
0101
0000
1010
0100
1010
0000
0011
1000
,
0001
0000
1100
0000
2001
0000
0100
0010
3100
0000
0100
0000
1010
0000
0011
0100
,
1010
0000
1100
0010
1001
0000
1100
0001
1010
0000
1100
0010
0101
0000
0110
0001
,
1000
0000
0011
0000
0201
0000
1000
0001
0310
0000
0101
0000
0101
0000
1100
0001
,
0010
0000
1010
0000
0210
0001
1000
0001
1000
0000
1300
0000
0010
0000
0100
0000
,
1001
1001
0000
1100
0000
0000
0110
0000
2010
0000
0001
3000
0120
0000
0100
0030
,
1100
0000
1001
0001
0110
0000
1100
0010
0101
0000
1001
0100
1010
0000
0110
1000
,
0001
0000
1100
0000
0102
0000
0100
0010
0103
0000
0001
0000
1010
0000
0101
1000
,
0101
0000
1010
0100
0011
0000
0101
0010
1001
0000
0110
1000
0110
0000
0011
0100
,
0001
0000
1100
0000
0201
0000
1000
0010
1300
0000
1000
0000
0110
0000
0101
0010
,
1000
0100
1000
0100
0001
0010
0001
0010
0100
0010
0100
0010
1000
0001
1000
0001
,
0001
0010
0100
1000
0001
0010
0100
1000
1000
0100
0010
0001
1000
0100
0011
0000
,
0000
0101
0202
0000
0000
0303
1010
1010
;

//---------------dance-single - ----------------
#NOTES:
     dance-single:
     :
     Medium:
     6:
     0.396,0.421,0.256,0.167,0.000,211.000,23.000,15.000,0.000,0.000:
0000
0000
0000
0000
,
0000
0000
0000
0000
,
0000
0000
0000
0000
,
0000
0000
0000
0000
,
0000
0000
0000
0000
,
1000
0010
0100
0001
,
1000
0100
1001
0110
,
0001
0100
0010
1000
,
0100
0001
0011
1100
,
0100
0001
1000
0010
,
0100
0001
0010
0100
,
0002
1000
1000
1003
,
2000
0010
0010
3010
,
0200
0001
0001
0301
,
0002
0010
0010
0013
,
0120
0100
0100
0130
,
2100
0100
0100
3100
,
0012
0010
0010
0013
,
2001
0001
0001
3001
,
1000
0000
0010
0000
0100
0000
0010
0100
,
0010
0000
0001
0000
1000
0000
0001
0100
,
0001
0000
0010
0000
0100
0000
1000
0100
,
1000
0000
0010
0000
0100
0000
0010
0010
,
0010
0000
0100
0000
0001
0000
1000
1000
,
1000
0000
0010
0000
1000
0000
0001
0001
,
0001
0000
0100
0000
0010
0000
0001
0001
,
0001
0000
0100
0000
0010
0000
1000
0010
,
1000
0000
0001
0000
0100
0000
0010
0001
,
0010
0000
0100
0000
0001
0000
1000
1000
,
1000
0000
0010
0000
0001
0000
0100
0100
,
0100
0000
0010
0000
1000
0000
0010
0001
,
0010
0000
0100
0000
0001
0000
0010
0010
,
0010
0100
1001
0110
,
1002
0000
1000
0000
1003
0000
0010
0100
,
0010
1000
0100
0100
,
2000
0001
0001
3001
,
1002
1000
1000
1003
,
1000
0010
0100
0010
,
0001
0001
0001
0001
,
0010
1000
0100
0001
,
0010
1000
0101
0110
,
1000
0001
0100
0010
,
1000
0001
1010
0011
,
0100
0001
1000
0010
,
0100
0001
0100
1000
,
0100
0001
1000
0010
,
2001
0000
3001
0000
0200
0000
0020
0330
,
1001
0010
0100
0001
,
1000
0100
1010
1100
,
0001
0100
0010
1000
,
0001
1000
0011
0101
,
0010
1000
0100
0001
,
0010
0000
1000
0000
0100
0000
0010
2001
,
0000
0001
0001
0000
0000
0000
0001
0001
,
3000
0000
0000
0000
;

//---------------dance-single - Copied from----------------
#NOTES:
     dance-single:
     Copied from:
     Easy:
     4:
     0.347,0.421,0.100,0.178,0.000,193.000,9.000,16.000,0.000,0.000:
0000
0000
0000
0000
,
0000
0000
0000
0000
,
0000
0000
0000
0000
,
0000
0000
0000
0000
,
0000
0000
0000
0000
,
0100
1000
0001
0010
,
0100
0001
0010
0001
,
0010
0001
1000
0100
,
0001
0010
0010
0100
,
0001
0010
0100
1000
,
0001
0010
1000
0001
,
0020
0100
0100
0130
,
0200
1000
1000
1300
,
0002
0010
0010
0013
,
0020
1000
1000
1030
,
2001
0001
0001
3001
,
0201
0001
0001
0301
,
1020
1000
1000
1030
,
0210
0010
0010
0310
,
0100
0100
1000
1000
,
0001
0001
0100
0010
,
0100
0100
0001
0001
,
0100
0100
0001
0010
,
1000
1000
0001
0001
,
1000
1000
0100
0001
,
0010
0010
1000
1000
,
0010
0010
1000
0100
,
0001
0001
0010
0010
,
1000
1000
0010
0100
,
0010
0010
0100
0100
,
0001
0001
0100
1000
,
0100
0100
0010
0010
,
1000
1000
0010
0001
,
0120
0100
0130
1000
,
1000
0100
0001
0001
,
0210
0010
0010
0310
,
0120
0100
0100
0130
,
0100
1000
0001
1000
,
0010
0010
0010
0010
,
1000
0100
0001
0010
,
1000
0100
0010
0001
,
0100
0010
0001
1000
,
0100
0010
0100
0010
,
0001
0010
0100
1000
,
0001
0010
0001
0100
,
0001
0010
0100
1000
,
0210
0000
0310
0000
0002
0000
2000
3003
,
0010
1000
0001
0010
,
0100
0001
1000
0001
,
0010
0001
1000
0100
,
0010
0100
0010
0010
,
1000
0100
0001
0010
,
1000
0100
0001
1000
,
0220
0000
0000
0000
,
0330
0000
0000
0000
;

//---------------dance-single - Copied from Copied f----------------
#NOTES:
     dance-single:
     Copied from Copied f:
     Beginner:
     2:
     0.175,0.210,0.011,0.167,0.000,94.000,1.000,15.000,0.000,0.000:
0000
0000
0000
0000
,
0000
0000
0000
0000
,
0000
0000
0000
0000
,
0000
0000
0000
0000
,
0000
0000
0000
0000
,
0100
0000
0010
0000
,
0100
0000
0001
0000
,
0001
0000
1000
0000
,
0010
0000
0001
0000
,
0010
0000
0100
0000
,
0010
0000
1000
0000
,
0002
0000
0000
0003
,
0200
0000
0000
0300
,
0020
0000
0000
0030
,
0002
0000
0000
0003
,
2000
0000
0000
3000
,
0200
0000
0000
0300
,
0002
0000
0000
0003
,
0200
0000
0000
0300
,
0100
0000
1000
0000
,
0010
0000
0100
0100
,
0100
0000
0010
0000
,
0100
0000
0010
0010
,
0010
0000
0100
0000
,
1000
0000
0001
0001
,
0001
0000
1000
0000
,
0001
0000
1000
1000
,
1000
0000
0001
0000
,
1000
0000
0010
0010
,
0010
0000
0100
0000
,
0010
0000
0100
0100
,
0100
0000
0001
0000
,
1000
0000
0000
0000
,
0002
0000
0103
0000
,
1000
0000
0010
0000
,
0200
0000
0000
0300
,
0002
0000
0000
0003
,
0100
0000
0010
0000
,
0001
0001
0001
0001
,
1000
0000
0010
0000
,
1000
0000
0001
0000
,
0100
0000
0010
0000
,
0100
0000
0100
0000
,
0010
0000
0100
0000
,
0010
0000
0010
0000
,
0010
0000
0100
0000
,
0200
0000
0000
0300
0020
0000
0000
0030
,
0001
0000
0010
0000
,
0100
0000
1000
0000
,
0001
0000
1000
0000
,
0001
0000
0001
0000
,
1000
0000
0010
0000
,
1000
0000
0010
0000
,
2002
0000
0000
0000
,
3003
0000
0000
0000
;
